Poster Boys (2017) 720p WEB-DL DD 2.0 x264 ESub [Moviezworldz]

  • Category Movies
  • Type Bollywood
  • Language Hindi
  • Total size 2.0 GB
  • Uploaded By moviezworldz
  • Downloads 1077
  • Last checked 2 months ago
  • Date uploaded 8 months ago
  • Seeders 1
  • Leechers 0

Poster Boys

Comedy

Life of three men comes in trouble when their photos appear on advertisement for sterilization.

Infohash : A643876324286EF919E18A29B340127359DD30FF




General
Format : Matroska
Format version : Version 4 / Version 2
File size : 1.96 GiB
Duration : 2 h 8 min
Overall bit rate : 2 187 kb/s

Video
ID : 1
Format : AVC
Format/Info : Advanced Video Codec
Format profile : [email protected]
Format settings : CABAC / 4 Ref Frames
Format settings, CABAC : Yes
Format settings, RefFrames : 4 frames
Codec ID : V_MPEG4/ISO/AVC
Duration : 2 h 8 min
Bit rate : 2 000 kb/s
Width : 1 280 pixels
Height : 528 pixels
Display aspect ratio : 2.40:1
Frame rate mode : Constant
Frame rate : 24.000 FPS
Color space : YUV
Chroma subsampling : 4:2:0
Bit depth : 8 bits
Scan type : Progressive
Bits/(Pixel*Frame) : 0.123
Stream size : 1.78 GiB (91%)
Writing library : x264 core 148 r2643 5c65704
Default : Yes
Forced : No

Audio
ID : 2
Format : AC-3
Format/Info : Audio Coding 3
Format settings, Endianness : Big
Codec ID : A_AC3
Duration : 2 h 8 min
Bit rate mode : Constant
Bit rate : 192 kb/s
Channel(s) : 2 channels
Channel positions : Front: L R
Sampling rate : 48.0 kHz
Frame rate : 31.250 FPS (1536 SPF)
Bit depth : 16 bits
Compression mode : Lossy
Stream size : 176 MiB (9%)
Service kind : Complete Main
Default : Yes
Forced : No

Text
ID : 3
Format : UTF-8
Codec ID : S_TEXT/UTF8
Codec ID/Info : UTF-8 Plain Text
Duration : 2 h 6 min
Bit rate : 79 b/s
Count of elements : 2341
Stream size : 73.9 KiB (0%)
Default : Yes
Forced : No










Files:

Poster Boys (2017) 720p WEB-DL DD 2.0 x264 ESub
  • Poster Boys (2017) 720p WEB-DL DD 2.0 x264 ESub.mkv (2.0 GB)

There are currently no comments. Feel free to leave one :)

Code:

  • http://ipv4.tracker.harry.lu/announce
  • http://ipv4.tracker.harry.lu:80/announce
  • http://open.kickasstracker.com/announce
  • http://open.kickasstracker.com:443/announce
  • udp://tracker.coppersurfer.tk:6969/announce
  • udp://tracker.coppersurfer.tk:80/announce
  • udp://tracker.leechers-paradise.org:6969/announce
  • udp://tracker.openbittorrent.com:80/announce
  • udp://tracker.zer0day.to:1337/announce
  • http://82.209.230.66/announce
  • http://163.172.180.68/announce
  • udp://eddie4.nl:6969/announce
  • udp://explodie.org:6969/announce
  • udp://9.rarbg.to:2720/announce
  • udp://tracker.coppersurfer.tk:6969
SitemapMixed Signals | The Charnel House (2016) | IDIOTENTEST - Wie gut kennst du Marken?? 😳🤔 (SEHR SCHWER)