Zig Sharko NEW Episodes New SeaSon 2 #17 Zig Sharko Full Episode in HD | Play Movie | RiverymanViews, Fears & Stories Rock, Progressive Rock, Art Rock

New.York.Stories.1989.720p.BluRay.x264-x0r

  • Category Movies
  • Type HD
  • Language English
  • Total size 2.4 GB
  • Uploaded By sub7
  • Downloads 57
  • Last checked 2 months ago
  • Date uploaded 11 months ago
  • Seeders 0
  • Leechers 2

New York Stories

ComedyDramaRomance

Three stories happening in New York. The first, by Scorsese, is about a painter who creates his works helped by high volume music and an attractive assistant; second, by Coppola, is about a rich and bold 12 years old who helps her separated parents to reconciliate; third, by Allen, is a witty piece of comedy about the impossibility of getting rid of the son's role.

Infohash : C1848441160A0714BA960CBB806841107BE701A3

New.York.Stories.1989.720p.BluRay.x264-x0r

ImDb: http://www.imdb.com/title/tt0097965



Complete name : New.York.Stories.1989.720p.BluRay.x264-x0r.mkv
Format : Matroska
Format version : Version 4 / Version 2
File size : 2.39 GiB
Duration : 2 h 4 min
Overall bit rate : 2 754 kb/s
Movie name : New.York.Stories.1989.720p.BluRay.x264-x0r
Encoded date : UTC 2017-09-20 15:41:54
Writing application : mkvmerge v7.7.0 ('Six Voices') 64bit built on Mar 1 2015 01:50:05
Writing library : libebml v1.3.1 + libmatroska v1.4.2

Video
ID : 1
Format : AVC
Format/Info : Advanced Video Codec
Format profile : [email protected]
Format settings, CABAC : Yes
Format settings, ReFrames : 8 frames
Codec ID : V_MPEG4/ISO/AVC
Duration : 2 h 4 min
Bit rate : 2 560 kb/s
Width : 1 280 pixels
Height : 720 pixels
Display aspect ratio : 16:9
Frame rate mode : Constant
Frame rate : 23.976 (24000/1001) FPS
Color space : YUV
Chroma subsampling : 4:2:0
Bit depth : 8 bits
Scan type : Progressive
Bits/(Pixel*Frame) : 0.116
Stream size : 2.23 GiB (93%)
Writing library : x264 core 142 r2389 956c8d8
Encoding settings : cabac=1 / ref=8 / deblock=1:-2:-2 / analyse=0x3:0x113 / me=umh / subme=9 / psy=1 / psy_rd=1.00:0.25 / mixed_ref=0 / me_range=32 / chroma_me=1 / trellis=2 / 8x8dct=1 / cqm=0 / deadzone=6,6 / fast_pskip=0 / chroma_qp_offset=-4 / threads=12 / lookahead_threads=1 / sliced_threads=0 / nr=0 / decimate=1 / interlaced=0 / bluray_compat=0 / constrained_intra=0 / bframes=4 / b_pyramid=2 / b_adapt=2 / b_bias=0 / direct=3 / weightb=1 / open_gop=0 / weightp=2 / keyint=240 / keyint_min=24 / scenecut=40 / intra_refresh=0 / rc_lookahead=60 / rc=2pass / mbtree=1 / bitrate=2560 / ratetol=1.0 / qcomp=0.00 / qpmin=0 / qpmax=69 / qpstep=4 / cplxblur=20.0 / qblur=0.5 / vbv_maxrate=20000 / vbv_bufsize=25000 / nal_hrd=none / filler=0 / ip_ratio=1.10 / aq=1:1.00
Language : English
Default : Yes
Forced : No
Color range : Limited
Color primaries : BT.709
Transfer characteristics : BT.709
Matrix coefficients : BT.709

Audio
ID : 2
Format : AC-3
Format/Info : Audio Coding 3
Format settings, Endianness : Big
Codec ID : A_AC3
Duration : 2 h 4 min
Bit rate mode : Constant
Bit rate : 192 kb/s
Channel(s) : 2 channels
Channel positions : Front: L R
Sampling rate : 48.0 kHz
Frame rate : 31.250 FPS (1536 spf)
Bit depth : 16 bits
Compression mode : Lossy
Delay relative to video : -5 ms
Stream size : 171 MiB (7%)
Title : Stereo
Language : English
Service kind : Complete Main
Default : Yes
Forced : No

Text
ID : 3
Format : UTF-8
Codec ID : S_TEXT/UTF8
Codec ID/Info : UTF-8 Plain Text
Duration : 2 h 3 min
Bit rate : 72 b/s
Count of elements : 2111
Stream size : 66.0 KiB (0%)
Language : English
Default : Yes
Forced : No

Menu
00:00:00.000 : :Chapter 1
00:06:16.459 : :Chapter 2
00:25:37.036 : :Chapter 3
00:37:20.989 : :Chapter 4
00:45:13.836 : :Chapter 5
00:55:39.837 : :Chapter 6
01:08:02.370 : :Chapter 7
01:16:22.244 : :Chapter 8
01:19:34.019 : :Chapter 9
01:35:31.893 : :Chapter 10
01:45:34.829 : :Chapter 11
01:58:24.806 : :Chapter 12
02:04:17.158 : :Chapter 13






Click To View Screenshot

Click To View Screenshot

Click To View Screenshot

Files:

New.York.Stories.1989.720p.BluRay.x264-x0r
  • New.York.Stories.1989.720p.BluRay.x264-x0r.fanart.jpg (382.8 KB)
  • New.York.Stories.1989.720p.BluRay.x264-x0r.jpg (1.0 MB)
  • New.York.Stories.1989.720p.BluRay.x264-x0r.mkv (2.4 GB)
  • New.York.Stories.1989.720p.BluRay.x264-x0r.nfo (0.1 KB)

There are currently no comments. Feel free to leave one :)

Code:

  • udp://tracker.coppersurfer.tk:6969/announce
  • udp://tracker.pirateparty.gr:6969/announce
  • udp://shadowshq.yi.org:6969/announce
  • udp://eddie4.nl:6969/announce
  • udp://tracker.leechers-paradise.org:6969/announce
  • udp://tracker.opentrackr.org:1337/announce
  • udp://p4p.arenabg.ch:1337/announce
  • udp://p4p.arenabg.com:1337/announce
  • udp://9.rarbg.me:2710/announce
  • udp://9.rarbg.to:2710/announce
  • udp://ipv4.tracker.harry.lu:80/announce
  • udp://tracker.grepler.com:6969/announce
  • udp://public.popcorn-tracker.org:6969/announce
  • udp://tracker.opentrackr.org:1337/announce
  • udp://tracker.zer0day.to:1337/announce
Sitemap